True Detective (2014) Season 01 S01 Complete (1080p BluRay x265 HEVC 10bit AAC 5.1 Joy) [UTR]

seeders: 18
leechers: 39
updated:
Added by UTRCorp in TV > HEVC/x265

Download Fast Safe Anonymous
movies, software, shows...
  • Downloads: 136
  • Language: English

Files

True Detective Season 1 (1080p BD x265 10bit FS84 Joy)
  • True Detective S01E01 The Long Bright Dark (1080p x265 10bit FS84 Joy).mkv (616.2 MB)
  • folder.jpg (27.3 KB)
  • How to play HEVC (THIS FILE).txt (3.4 KB)
  • Ninite K-Lite Codecs Unattended Silent Installer and Updater.website (0.5 KB)
  • Encoded by JoyBell (UTR).txt (2.7 KB)
  • True Detective S01E02 Seeing Things (1080p x265 10bit FS84 Joy).mkv (595.4 MB)
  • True Detective S01E03 The Locked Room (1080p x265 10bit FS83 Joy).mkv (601.9 MB)
  • True Detective S01E04 Who Goes There (1080p x265 10bit FS85 Joy).mkv (615.6 MB)
  • True Detective S01E05 The Secret Fate of All Life (1080p x265 10bit FS83 Joy).mkv (613.7 MB)
  • True Detective S01E06 Haunted Houses (1080p x265 10bit FS83 Joy).mkv (606.6 MB)
  • True Detective S01E07 After You've Gone (1080p x265 10bit FS83 Joy).mkv (560.2 MB)
  • True Detective S01E08 Form and Void (1080p x265 10bit FS84 Joy).mkv (587.0 MB)
  • Featuretts
    • A Conversation With Nic Pizzolatto And T. Bone Burnett.mkv (91.1 MB)
    • Extra-1.mkv (38.2 MB)
    • Extra-2.mkv (21.6 MB)
    • Extra-3.mkv (91.7 MB)
    • True Detective Inside The Episode 1.mkv (25.4 MB)
    • True Detective Inside The Episode 2.mkv (24.2 MB)
    • True Detective Inside The Episode 3.mkv (25.1 MB)
    • True Detective Inside The Episode 4.mkv (29.2 MB)
    • True Detective Inside The Episode 5.mkv (27.2 MB)
    • True Detective Inside The Episode 6.mkv (29.8 MB)
    • True Detective Inside The Episode 7.mkv (27.8 MB)
    • True Detective Inside The Episode 8.mkv (31.0 MB)
    • Woody Matthew Fatigue.mkv (13.3 MB)
    • Woody Matthew The Fight Scene.mkv (14.5 MB)

Description












Media Information
Includes the Blu-ray Featurettes

Media Information


Code:

General
Format                                   : Matroska
Format version                           : Version 4 / Version 2
File size                                : 616 MiB
Duration                                 : 59 min 45 s
Overall bit rate                         : 1 442 kb/s
Movie name                               : True Detective S01E01 The Long Bright Dark  (1080p x265 10bit FS84 Joy)[UTR]
Encoded date                             : UTC 2019-01-08 22:04:34
Writing application                      : mkvmerge v24.0.0 ('Beyond The Pale') 64-bit
Writing library                          : libebml v1.3.6 + libmatroska v1.4.9
Writing frontend                         : StaxRip v1.8.2.0, A JoyBell Encode, UTR

Video
ID                                       : 1
Format                                   : HEVC
Format/Info                              : High Efficiency Video Coding
Format profile                           : Main [email protected]@Main
Codec ID                                 : V_MPEGH/ISO/HEVC
Duration                                 : 59 min 45 s
Bit rate                                 : 1 199 kb/s
Width                                    : 1 920 pixels
Height                                   : 1 080 pixels
Display aspect ratio                     : 16:9
Frame rate mode                          : Constant
Frame rate                               : 23.976 (24000/1001) FPS
Color space                              : YUV
Chroma subsampling                       : 4:2:0
Bit depth                                : 10 bits
Bits/(Pixel*Frame)                       : 0.024
Stream size                              : 513 MiB (83%)
Writing library                          : x265 2.8+69-856f056d392e:[Windows][MSVC 1915][64 bit] 10bit
Encoding settings                        : cpuid=1111039 / frame-threads=3 / numa-pools=8 / wpp / no-pmode / no-pme / no-psnr / ssim / log-level=2 / input-csp=1 / input-res=1920x1080 / interlace=0 / total-frames=85959 / level-idc=0 / high-tier=1 / uhd-bd=0 / ref=4 / no-allow-non-conformance / no-repeat-headers / annexb / no-aud / no-hrd / info / hash=0 / no-temporal-layers / open-gop / min-keyint=23 / keyint=250 / gop-lookahead=0 / bframes=4 / b-adapt=2 / b-pyramid / bframe-bias=0 / rc-lookahead=80 / lookahead-slices=4 / scenecut=40 / radl=0 / no-intra-refresh / ctu=64 / min-cu-size=8 / no-rect / no-amp / max-tu-size=32 / tu-inter-depth=1 / tu-intra-depth=1 / limit-tu=0 / rdoq-level=2 / dynamic-rd=4.00 / ssim-rd / signhide / no-tskip / nr-intra=0 / nr-inter=0 / no-constrained-intra / strong-intra-smoothing / max-merge=3 / limit-refs=3 / limit-modes / me=3 / subme=3 / merange=57 / temporal-mvp / weightp / no-weightb / no-analyze-src-pics / deblock=0:0 / sao / no-sao-non-deblock / rd=4 / no-early-skip / rskip / no-fast-intra / no-tskip-fast / no-cu-lossless / no-b-intra / no-splitrd-skip / rdpenalty=0 / psy-rd=0.00 / psy-rdoq=1.00 / no-rd-refine / no-lossless / cbqpoffs=0 / crqpoffs=0 / rc=abr / bitrate=1200 / qcomp=0.60 / qpstep=4 / stats-write=0 / stats-read=2 / cplxblur=20.0 / qblur=0.5 / vbv-maxrate=3600 / vbv-bufsize=9000 / vbv-init=0.9 / ipratio=1.40 / pbratio=1.30 / aq-mode=2 / aq-strength=0.80 / cutree / zone-count=0 / no-strict-cbr / qg-size=32 / no-rc-grain / qpmax=69 / qpmin=0 / no-const-vbv / sar=0 / overscan=0 / videoformat=5 / range=0 / colorprim=2 / transfer=2 / colormatrix=2 / chromaloc=0 / display-window=0 / max-cll=0,0 / min-luma=0 / max-luma=1023 / log2-max-poc-lsb=8 / vui-timing-info / vui-hrd-info / slices=1 / no-opt-qp-pps / no-opt-ref-list-length-pps / multi-pass-opt-rps / scenecut-bias=0.05 / no-opt-cu-delta-qp / no-aq-motion / no-hdr / no-hdr-opt / no-dhdr10-opt / no-idr-recovery-sei / analysis-reuse-level=10 / scale-factor=0 / refine-intra=0 / refine-inter=0 / refine-mv=0 / limit-sao / ctu-info=0 / no-lowpass-dct / refine-mv-type=0 / copy-pic=1 / max-ausize-factor=1.0 / no-dynamic-refine / no-single-sei
Default                                  : Yes
Forced                                   : No

Audio
ID                                       : 2
Format                                   : AAC
Format/Info                              : Advanced Audio Codec
Format profile                           : HE-AAC / LC
Codec ID                                 : A_AAC
Duration                                 : 59 min 45 s
Bit rate                                 : 206 kb/s
Channel(s)                               : 6 channels
Channel positions                        : Front: L C R, Side: L R, LFE
Sampling rate                            : 48.0 kHz / 24.0 kHz
Frame rate                               : 23.438 FPS (1024 spf)
Compression mode                         : Lossy
Delay relative to video                  : 31 ms
Stream size                              : 88.2 MiB (14%)
Language                                 : English
Default                                  : No
Forced                                   : No

Subtitle #1
ID                                       : 3
Format                                   : VobSub
Muxing mode                              : zlib
Codec ID                                 : S_VOBSUB
Codec ID/Info                            : Picture based subtitle format used on DVDs
Duration                                 : 58 min 19 s
Bit rate                                 : 11.9 kb/s
Count of elements                        : 846
Stream size                              : 4.97 MiB (1%)
Language                                 : English
Default                                  : No
Forced                                   : No

Subtitle #2
ID                                       : 4
Format                                   : VobSub
Muxing mode                              : zlib
Codec ID                                 : S_VOBSUB
Codec ID/Info                            : Picture based subtitle format used on DVDs
Duration                                 : 56 min 7 s
Bit rate                                 : 11.5 kb/s
Count of elements                        : 735
Stream size                              : 4.63 MiB (1%)
Language                                 : German
Default                                  : No
Forced                                   : No

Subtitle #3
ID                                       : 5
Format                                   : VobSub
Muxing mode                              : zlib
Codec ID                                 : S_VOBSUB
Codec ID/Info                            : Picture based subtitle format used on DVDs
Duration                                 : 38 min 41 s
Bit rate                                 : 38 b/s
Count of elements                        : 2
Stream size                              : 10.8 KiB (0%)
Language                                 : German
Default                                  : No
Forced                                   : Yes

Subtitle #4
ID                                       : 6
Format                                   : VobSub
Muxing mode                              : zlib
Codec ID                                 : S_VOBSUB
Codec ID/Info                            : Picture based subtitle format used on DVDs
Duration                                 : 56 min 10 s
Bit rate                                 : 10.4 kb/s
Count of elements                        : 774
Stream size                              : 4.17 MiB (1%)
Language                                 : Spanish
Default                                  : No
Forced                                   : No

Subtitle #5
ID                                       : 7
Format                                   : VobSub
Muxing mode                              : zlib
Codec ID                                 : S_VOBSUB
Codec ID/Info                            : Picture based subtitle format used on DVDs
Duration                                 : 54 min 31 s
Bit rate                                 : 191 b/s
Count of elements                        : 12
Stream size                              : 76.3 KiB (0%)
Language                                 : Spanish
Default                                  : No
Forced                                   : Yes

Subtitle #6
ID                                       : 8
Format                                   : VobSub
Muxing mode                              : zlib
Codec ID                                 : S_VOBSUB
Codec ID/Info                            : Picture based subtitle format used on DVDs
Duration                                 : 56 min 57 s
Bit rate                                 : 10.1 kb/s
Count of elements                        : 590
Stream size                              : 4.12 MiB (1%)
Language                                 : Czech
Default                                  : No
Forced                                   : No

Subtitle #7
ID                                       : 9
Format                                   : VobSub
Muxing mode                              : zlib
Codec ID                                 : S_VOBSUB
Codec ID/Info                            : Picture based subtitle format used on DVDs
Duration                                 : 56 min 25 s
Bit rate                                 : 12.8 kb/s
Count of elements                        : 796
Stream size                              : 5.15 MiB (1%)
Language                                 : Greek
Default                                  : No
Forced                                   : No

Menu
00:00:00.000                             : en:Chapter 1
00:01:37.514                             : en:Chapter 2
00:09:30.778                             : en:Chapter 3
00:18:47.918                             : en:Chapter 4
00:27:25.226                             : en:Chapter 5
00:36:19.969                             : en:Chapter 6
00:48:51.261                             : en:Chapter 7
00:58:32.842                             : en:Chapter 8



Source Information


Code:

Release:
True.Detective.S01.1080p.Remux.xorbitant  (112 GB)



We have no issue with individuals posting or re-uploading our torrents on a platform we aren't on. However, if this is something you'd like to do, please do so in a 'as-is' format. We ask that you do not create a new torrent, include all descriptions you see above including the UTR logo, tags, notes and screenshots. If you'd like to become a permanent poster on a website we don't post to, feel free to get in contact with a UniTeam member.




Download torrent
5324.8 GB
seeders:18
leechers:39
True Detective (2014) Season 01 S01 Complete (1080p BluRay x265 HEVC 10bit AAC 5.1 Joy) [UTR]


Trackers

tracker name
udp://tracker.coppersurfer.tk:6969/announce
udp://9.rarbg.com:2710/announce
udp://9.rarbg.to:2710/announce
udp://tracker.torrent.eu.org:451/announce
udp://exodus.desync.com:6969/announce
udp://tracker.leechers-paradise.org:6969/announce
udp://tracker.tiny-vps.com:6969/announce
udp://open.demonii.si:1337/announce
udp://tracker.zer0day.to:1337/announce
udp://tracker.opentrackr.org:1337/announce
udp://p4p.arenabg.com:1337/announce
udp://tracker.internetwarriors.net:1337/announce
µTorrent compatible trackers list

Download torrent
5324.8 GB
seeders:18
leechers:39
True Detective (2014) Season 01 S01 Complete (1080p BluRay x265 HEVC 10bit AAC 5.1 Joy) [UTR]


Torrent hash: 6F6FE19E361B14DC74C4A1DAE8E51E802EF65AE7