Sword Master (2016) UNCUT 720p Blu-Ray x264 Esub [Dual Audio] [Hindi DTH 2.0 - English 2.0] - 1.2 GB

seeders: 269
leechers: 667
updated:

Download Fast Safe Anonymous
movies, software, shows...
Summary:

Weary of the bloodshed and violence from the martial arts world, a powerful swordsman banishes himself to the humble life a vagrant, wandering the fringes of society. But his violent past refuses to let him go quietly. The master swordsman must regain the ability to wield his sword and fight those disrupting the peace he so desperately craves.

Files

Sword Master (2016) UNCUT 720p Blu-Ray x264 Esub [Dual Audio]
  • SAMPLE.mkv (11.0 MB)
  • Sword Master (2016) UNCUT 720p Blu-Ray x264 Esub [Dual Audio] DesireMovies.Men.mkv (1.2 GB)

Description

Sword Master (2016) UNCUT 720p Blu-Ray x264 Esub [Dual Audio] [Hindi DTH 2.0 - English 2.0] - 1.2 GB


EXUSIVE UPLOAD BY DesireMoVies.Men


Sword Master (2016)


POSTER




INFO


General
Format : Matroska
Format version : Version 4
File size : 1.16 GiB
Duration : 1 h 47 min
Overall bit rate : 1 549 kb/s

Video
ID : 1
Format : AVC
Format/Info : Advanced Video Codec
Format profile : [email protected]
Format settings : CABAC / 9 Ref Frames
Format settings, CABAC : Yes
Format settings, ReFrames : 9 frames
Codec ID : V_MPEG4/ISO/AVC
Duration : 1 h 47 min
Bit rate : 1 200 kb/s
Width : 1 280 pixels
Height : 692 pixels
Display aspect ratio : 1.85:1
Frame rate mode : Constant
Frame rate : 24.000 FPS
Color space : YUV
Chroma subsampling : 4:2:0
Bit depth : 8 bits
Default : Yes
Forced : No
Color range : Limited
Color primaries : BT.709
Transfer characteristics : BT.709
Matrix coefficients : BT.709

Audio #1
ID : 2
Format : AC-3
Format/Info : Audio Coding 3
Commercial name : Dolby Digital
Codec ID : A_AC3
Duration : 1 h 47 min
Bit rate mode : Constant
Bit rate : 224 kb/s
Channel(s) : 2 channels
Channel layout : L R
Sampling rate : 48.0 kHz
Frame rate : 31.250 FPS (1536 SPF)
Bit depth : 16 bits
Compression mode : Lossy
Delay relative to video : -17 ms
Stream size : 172 MiB (14%)
Title : Hindi DTH 2.0
Language : Hindi
Service kind : Complete Main
Default : Yes
Forced : Yes

Audio #2
ID : 3
Format : AAC LC
Format/Info : Advanced Audio Codec Low Complexity
Codec ID : A_AAC-2
Duration : 1 h 47 min
Bit rate : 112 kb/s
Channel(s) : 2 channels
Channel layout : L R
Sampling rate : 48.0 kHz
Frame rate : 46.875 FPS (1024 SPF)
Compression mode : Lossy
Delay relative to video : -17 ms
Stream size : 86.6 MiB (7%)
Title : DesireMovies.Men
Language : English
Default : No
Forced : No

Text
ID : 4
Format : PGS
Muxing mode : zlib
Codec ID : S_HDMV/PGS
Codec ID/Info : Picture based subtitle format used on BDs/HD-DVDs
Duration : 1 h 39 min
Bit rate : 26.1 kb/s
Count of elements : 2514
Stream size : 18.5 MiB (2%)
Language : English
Default : Yes
Forced : No


SCREENSHOT



Keep Visit DesireMoVies.trade For More Exusive MoVies


Related Torrents

torrent name size uploader age seed leech
2.6 GB vaish00 1
year
18 0
1.1 GB bone111 1
year
10 0
801.8 MB bone111 1
year
6 2
999.9 MB MkvCage 1
year
5 0
9.3 GB SaM 1
year
4 1


Download torrent
1.2 GB
seeders:269
leechers:667
Sword Master (2016) UNCUT 720p Blu-Ray x264 Esub [Dual Audio] [Hindi DTH 2.0 - English 2.0] - 1.2 GB


Trackers

tracker name
udp://tracker.coppersurfer.tk:6969/announce
udp://tracker.leechers-paradise.org:6969/announce
udp://tracker.pirateparty.gr:6969/announce
udp://eddie4.nl:6969/announce
udp://tracker.zer0day.to:1337/announce
udp://9.rarbg.me:2710/announce
udp://9.rarbg.to:2710/announce
udp://public.popcorn-tracker.org:6969/announce
udp://p4p.arenabg.ch:1337/announce
udp://tracker.opentrackr.org:1337/announce
http://ipv4.tracker.harry.lu:80/announce
http://open.kickasstracker.com/announce
http://tracker.devil-torrents.pl/announce
http://t.nyaatracker.com:80/announce
http://retracker.mgts.by:80/announce
udp://tracker.internetwarriors.net:1337/announce
udp://shadowshq.yi.org:6969/announce
udp://explodie.org:6969/announce
udp://tracker.tiny-vps.com:6969/announce
udp://inferno.demonoid.pw:3391/announce
udp://peerfect.org:6969/announce
udp://tracker.vanitycore.co:6969/announce
udp://open.stealth.si:80/announ
udp://p4p.arenabg.com:1337/announce
udp://tracker.zer0day.to:1337/announce
udp://tracker.coppersurfer.tk:80/announce
udp://coppersurfer.tk:6969/announce
udp://mgtracker.org:6969/announce
µTorrent compatible trackers list

Download torrent
1.2 GB
seeders:269
leechers:667
Sword Master (2016) UNCUT 720p Blu-Ray x264 Esub [Dual Audio] [Hindi DTH 2.0 - English 2.0] - 1.2 GB


Torrent hash: 6F6B3527E01FB5E6E6A2B4A00018502450F00128