Guitar Drum and Bass S01E01 On Drums - Stewart Copeland (1280x720p HD, 50fps, soft Eng subs)

seeders: 1
leechers: 0
updated:
Added by ElsonRoa in TV > HD

Download Fast Safe Anonymous
movies, software, shows...
  • Downloads: 39
  • Language: English

Files

Guitar Drum and Bass S01E01 On Drums - Stewart Copeland
  • About this torrent.txt (2.0 KB)
  • Guitar Drum and Bass S01E01 On Drums - Stewart Copeland.jpg (819.3 KB)
  • Guitar Drum and Bass S01E01 On Drums - Stewart Copeland.mp4 (2.2 GB)
  • Guitar Drum and Bass S01E01 On Drums - Stewart Copeland.srt (114.4 KB)
  • If this torrent is dead.txt (0.1 KB)
  • Torrent Downloaded From 1337x.to.txt (0.0 KB)
  • [TGx]Downloaded from torrentgalaxy.org .txt (0.6 KB)

Description

Guitar Drum and Bass S01E01 On Drums - Stewart Copeland (1280x720p HD, 50fps, soft Eng subs)

Stewart Copeland explores the drums as the founding instrument of popular modern music. Beats that travelled from Africa via New Orleans and across the world are the consistent force behind musical evolution.

Stewart plays with some of the most inspiring drummers of the last 50 years, including John Densmore of The Doors, Chad Smith of The Red Hot Chilli Peppers, Prince's musical director Sheila E, New Order's Stephen Morris and Foo Fighters' Taylor Hawkins. He goes dancing in New Orleans, builds his own bass drum pedal and checks out hot new bands on Santa Monica beach.

First broadcast: 11 January 2019
Duration: 1 hour

Torrent dead? Request reseed at 1337x.to or torrentgalaxy.org - or ask at elsonroa at tutanota.com



Media info:-
General
Format : MPEG-4
Format profile : Base Media
Codec ID : isom (isom/iso2/avc1/mp41)
File size : 2.19 GiB
Duration : 59mn 3s
Overall bit rate : 5 310 Kbps
Writing application : Lavf57.83.100

Video
ID : 1
Format : AVC
Format/Info : Advanced Video Codec
Format profile : [email protected]
Format settings, CABAC : Yes
Format settings, ReFrames : 4 frames
Codec ID : avc1
Codec ID/Info : Advanced Video Coding
Duration : 59mn 3s
Bit rate : 4 985 Kbps
Width : 1 280 pixels
Height : 720 pixels
Display aspect ratio : 16:9
Frame rate mode : Constant
Frame rate : 50.000 fps
Color space : YUV
Chroma subsampling : 4:2:0
Bit depth : 8 bits
Scan type : Progressive
Bits/(Pixel*Frame) : 0.108
Stream size : 2.06 GiB (94%)
Encoded date : UTC 1904-01-01 00:00:00
Tagged date : UTC 1904-01-01 00:00:00
Color range : Limited
Color primaries : BT.709
Transfer characteristics : BT.709
Matrix coefficients : BT.709

Audio
ID : 2
Format : AAC
Format/Info : Advanced Audio Codec
Format profile : LC
Codec ID : 40
Duration : 59mn 3s
Bit rate mode : Constant
Bit rate : 317 Kbps
Channel(s) : 2 channels
Channel positions : Front: L R
Sampling rate : 48.0 KHz
Frame rate : 46.875 fps (1024 spf)
Compression mode : Lossy
Stream size : 134 MiB (6%)
Language : English



Download torrent
2252.8 GB
seeders:1
leechers:0
Guitar Drum and Bass S01E01 On Drums - Stewart Copeland (1280x720p HD, 50fps, soft Eng subs)


Trackers

tracker name
udp://retracker.hotplug.ru:2710/announce
udp://bittracker.ru:6969/announce
udp://torrentclub.tech:6969/announce
udp://tracker.torrent.eu.org:451/announce
udp://bigfoot1942.sektori.org:6969/announce
udp://denis.stalker.upeer.me:6969/announce
udp://tracker.port443.xyz:6969/announce
udp://tracker.filemail.com:6969/announce
µTorrent compatible trackers list

Download torrent
2252.8 GB
seeders:1
leechers:0
Guitar Drum and Bass S01E01 On Drums - Stewart Copeland (1280x720p HD, 50fps, soft Eng subs)


Torrent hash: E73124A38876399BCFEB0500278F63C70ADA00E4