Better Call Saul (2015) Season 04 S04 (1080p NF WEB-DL x265 HEVC 10bit AAC 5.1 Joy) [UTR]

seeders: 19
leechers: 16
updated:
Added by UTRCorp in TV > HEVC/x265

Download Fast Safe Anonymous
movies, software, shows...
  • Downloads: 63
  • Language: English

Files

Better Call Saul Season 4 (1080p x265 10bit S97 Joy)
  • Better Call Saul S04E10 Winner (1080p x265 10bit Joy).mkv (596.3 MB)
  • Better Call Saul S04E02 Breathe (1080p x265 10bit Joy).mkv (453.0 MB)
  • Better Call Saul S04E03 Something Beautiful (1080p x265 10bit Joy).mkv (415.0 MB)
  • Better Call Saul S04E04 Talk (1080p x265 10bit Joy).mkv (456.8 MB)
  • Better Call Saul S04E05 Quite a Ride (1080p x265 10bit Joy).mkv (519.7 MB)
  • Better Call Saul S04E06 Piñata (1080p x265 10bit Joy).mkv (465.3 MB)
  • Better Call Saul S04E07 Something Stupid (1080p x265 10bit Joy).mkv (410.0 MB)
  • Better Call Saul S04E08 Coushatta (1080p x265 10bit Joy).mkv (522.2 MB)
  • Better Call Saul S04E09 Wiedersehen (1080p x265 10bit Joy).mkv (545.8 MB)
  • Better Call Saul S04E01 Smoke (1080p x265 10bit Joy).mkv (477.8 MB)
  • Encoded by JoyBell (UTR).txt (2.7 KB)
  • folder.jpg (104.9 KB)
  • How to play HEVC (THIS FILE).txt (3.4 KB)
  • Ninite K-Lite Codecs Unattended Silent Installer and Updater.website (0.5 KB)

Description










[CENTER]

Media Information

Media Information

Code:

General
Format : Matroska
Format version : Version 4 / Version 2
File size : 478 MiB
Duration : 48 min 31 s
Overall bit rate : 1 377 kb/s
Movie name : Better Call Saul S04E01 Smoke (1080p x265 10bit Joy)
Encoded date : UTC 2019-01-04 13:40:21
Writing application : mkvmerge v24.0.0 ('Beyond The Pale') 64-bit
Writing library : libebml v1.3.6 + libmatroska v1.4.9
Writing frontend : StaxRip v1.8.2.0, A JoyBell Encode, UTR

Video
ID : 1
Format : HEVC
Format/Info : High Efficiency Video Coding
Format profile : Main [email protected]@Main
Codec ID : V_MPEGH/ISO/HEVC
Duration : 48 min 31 s
Bit rate : 1 200 kb/s
Width : 1 920 pixels
Height : 1 080 pixels
Display aspect ratio : 16:9
Frame rate mode : Constant
Frame rate : 23.976 (24000/1001) FPS
Color space : YUV
Chroma subsampling : 4:2:0
Bit depth : 10 bits
Bits/(Pixel*Frame) : 0.024
Stream size : 417 MiB (87%)
Writing library : x265 2.9+15-81373aab81df:[Windows][MSVC 1916][64 bit] 10bit
Encoding settings : cpuid=1111039 / frame-threads=3 / numa-pools=8 / wpp / no-pmode / no-pme / no-psnr / ssim / log-level=2 / input-csp=1 / input-res=1920x1080 / interlace=0 / total-frames=69801 / level-idc=0 / high-tier=1 / uhd-bd=0 / ref=4 / no-allow-non-conformance / no-repeat-headers / annexb / no-aud / no-hrd / info / hash=0 / no-temporal-layers / open-gop / min-keyint=23 / keyint=250 / gop-lookahead=0 / bframes=4 / b-adapt=2 / b-pyramid / bframe-bias=0 / rc-lookahead=80 / lookahead-slices=4 / scenecut=40 / radl=0 / no-splice / no-intra-refresh / ctu=64 / min-cu-size=8 / no-rect / no-amp / max-tu-size=32 / tu-inter-depth=1 / tu-intra-depth=1 / limit-tu=0 / rdoq-level=2 / dynamic-rd=0.00 / ssim-rd / signhide / no-tskip / nr-intra=0 / nr-inter=0 / no-constrained-intra / strong-intra-smoothing / max-merge=3 / limit-refs=3 / limit-modes / me=3 / subme=3 / merange=57 / temporal-mvp / weightp / no-weightb / no-analyze-src-pics / deblock=0:0 / sao / no-sao-non-deblock / rd=4 / no-early-skip / rskip / no-fast-intra / no-tskip-fast / no-cu-lossless / no-b-intra / no-splitrd-skip / rdpenalty=0 / psy-rd=0.00 / psy-rdoq=1.50 / no-rd-refine / no-lossless / cbqpoffs=0 / crqpoffs=0 / rc=abr / bitrate=1200 / qcomp=0.60 / qpstep=4 / stats-write=0 / stats-read=2 / cplxblur=20.0 / qblur=0.5 / ipratio=1.40 / pbratio=1.30 / aq-mode=3 / aq-strength=0.80 / cutree / zone-count=0 / no-strict-cbr / qg-size=32 / no-rc-grain / qpmax=69 / qpmin=0 / no-const-vbv / sar=0 / overscan=0 / videoformat=5 / range=0 / colorprim=2 / transfer=2 / colormatrix=2 / chromaloc=0 / display-window=0 / max-cll=0,0 / min-luma=0 / max-luma=1023 / log2-max-poc-lsb=8 / vui-timing-info / vui-hrd-info / slices=1 / no-opt-qp-pps / no-opt-ref-list-length-pps / multi-pass-opt-rps / scenecut-bias=0.05 / no-opt-cu-delta-qp / no-aq-motion / no-hdr / no-hdr-opt / no-dhdr10-opt / no-idr-recovery-sei / analysis-reuse-level=10 / scale-factor=0 / refine-intra=0 / refine-inter=0 / refine-mv=0 / limit-sao / ctu-info=0 / no-lowpass-dct / refine-mv-type=0 / copy-pic=1 / max-ausize-factor=1.0 / no-dynamic-refine / no-single-sei
Default : Yes
Forced : No

Audio
ID : 2
Format : AAC
Format/Info : Advanced Audio Codec
Format profile : HE-AAC / LC
Codec ID : A_AAC
Duration : 48 min 31 s
Bit rate : 174 kb/s
Channel(s) : 6 channels
Channel positions : Front: L C R, Side: L R, LFE
Sampling rate : 48.0 kHz / 24.0 kHz
Frame rate : 23.438 FPS (1024 spf)
Compression mode : Lossy
Delay relative to video : 31 ms
Stream size : 60.5 MiB (13%)
Language : English
Default : No
Forced : No

Subtitle #1
ID : 3
Format : UTF-8
Codec ID : S_TEXT/UTF8
Codec ID/Info : UTF-8 Plain Text
Duration : 1 min 55 s
Bit rate : 47 b/s
Count of elements : 29
Stream size : 685 Bytes (0%)
Language : English
Default : No
Forced : Yes

Subtitle #2
ID : 4
Format : UTF-8
Codec ID : S_TEXT/UTF8
Codec ID/Info : UTF-8 Plain Text
Duration : 47 min 29 s
Bit rate : 41 b/s
Count of elements : 441
Stream size : 14.5 KiB (0%)
Language : English
Default : No
Forced : No

Subtitle #3
ID : 5
Format : UTF-8
Codec ID : S_TEXT/UTF8
Codec ID/Info : UTF-8 Plain Text
Duration : 46 min 27 s
Bit rate : 36 b/s
Count of elements : 364
Stream size : 12.5 KiB (0%)
Language : English
Default : No
Forced : No



Source Information

Code:

Release:
Better Call Saul S04 2160p NF WEBRip DD+ 5.1 x264-NTb




We have no issue with individuals posting or re-uploading our torrents on a platform we aren't on. However, if this is something you'd like to do, please do so in a 'as-is' format. We ask that you do not create a new torrent, include all descriptions you see above including the UTR logo, tags, notes and screenshots. If you'd like to become a permanent poster on a website we don't post to, feel free to get in contact with a UniTeam member.



Download torrent
4812.8 GB
seeders:19
leechers:16
Better Call Saul (2015) Season 04 S04 (1080p NF WEB-DL x265 HEVC 10bit AAC 5.1 Joy) [UTR]


Trackers

tracker name
udp://tracker.coppersurfer.tk:6969/announce
udp://9.rarbg.com:2710/announce
udp://9.rarbg.to:2710/announce
udp://tracker.torrent.eu.org:451/announce
udp://exodus.desync.com:6969/announce
udp://tracker.leechers-paradise.org:6969/announce
udp://tracker.tiny-vps.com:6969/announce
udp://open.demonii.si:1337/announce
udp://tracker.zer0day.to:1337/announce
udp://tracker.opentrackr.org:1337/announce
udp://p4p.arenabg.com:1337/announce
udp://tracker.internetwarriors.net:1337/announce
µTorrent compatible trackers list

Download torrent
4812.8 GB
seeders:19
leechers:16
Better Call Saul (2015) Season 04 S04 (1080p NF WEB-DL x265 HEVC 10bit AAC 5.1 Joy) [UTR]


Torrent hash: 89B81657575271FBC90BFFC8BA42794444992D09